[多国][冒险][阿丽塔:战斗天使][1080p.AMZN.WEBRip.DDP5.1.Atmos.x264/7.98 GB][英语英文] 2019 欧美 动作 科幻 1080p

mfxz 3月前 114


导演: 罗伯特·罗德里格兹

编剧: 詹姆斯·卡梅隆 / 莱塔·卡罗格里迪斯 / 木城幸人

主演: 罗莎·萨拉查 / 克里斯托弗·沃尔兹 / 基恩·约翰逊 / 艾德·斯克林 / 马赫沙拉·阿里

类型: 动作 / 科幻 / 冒险

制片国家/地区: 美国 / 加拿大 / 阿根廷

语言: 英语 / 西班牙语

上映日期: 2019-02-22(中国大陆) / 2019-02-05(台湾) / 2019-02-14(美国)

片长: 122分钟

又名: 铳梦 / 铳梦:战斗天使(港) / 艾莉塔:战斗天使(台)

IMDb链接: tt0437086


阿丽塔:战斗天使的剧情简介 · · · · · ·

  故事发生在遥远的26世纪,外科医生依德(克里斯托弗·瓦尔兹 Christoph Waltz 饰)在垃圾场里捡到了只剩下头部的机械少女将她带回家中,给她装上了本来为自己已故的女儿所准备的义体,并取名阿丽塔(罗莎·萨拉扎尔 Rosa Salazar 饰)。苏醒后的阿丽塔对这个五彩斑斓但却暴力而又残酷的世界产生了浓厚的兴趣,在结识了青年雨果(基恩·约翰逊 Keean Johnson 饰)后,阿丽塔开始接触名为机动球的运动,并在比赛中展现出了惊人的格斗天赋。 

  在废铁城居民们的头顶,漂浮着巨大的浮空城市撒冷,废铁城居民们的一切劳作和付出,都是为了给撒冷提供继续运作的燃料。在大财阀维克特(马赫沙拉·阿里 Mahershala Ali 饰)所设立的机动球比赛中,最终获得冠军的人能够获得前往撒冷生活的资格,阿丽塔决定利用自己的格斗天赋参加比赛,却被卷入了一个巨大的阴谋之中。




Video
ID : 1
Format : AVC
Format/Info : Advanced Video Codec
Format profile : High@L4
Format settings : CABAC / 4 Ref Frames
Format settings, CABAC : Yes
Format settings, ReFrames : 4 frames
Codec ID : V_MPEG4/ISO/AVC
Duration : 2 h 1 min
Bit rate mode : Constant
Bit rate : 8 791 kb/s
Nominal bit rate : 10 000 kb/s
Width : 1 920 pixels
Height : 800 pixels
Display aspect ratio : 2.40:1
Frame rate mode : Constant
Frame rate : 23.976 (24000/1001) FPS
Color space : YUV
Chroma subsampling : 4:2:0
Bit depth : 8 bits
Scan type : Progressive
Bits/(Pixel*Frame) : 0.239
Stream size : 7.49 GiB (94%)
Title : Alita.Battle.Angel.2019.1080p.AMZN.WEBRip.DDP5.1.Atmos.x264-FGT
Default : Yes
Forced : No
Color range : Limited
Color primaries : BT.709
Transfer characteristics : BT.709
Matrix coefficients : BT.709

Audio
ID : 2
Format : E-AC-3 JOC
Format/Info : Enhanced AC-3 with Joint Object Coding
Commercial name : Dolby Digital Plus with Dolby Atmos
Codec ID : A_EAC3
Duration : 2 h 1 min
Bit rate mode : Constant
Bit rate : 576 kb/s
Channel(s) : 6 channels
Channel layout : L R C LFE Ls Rs
Sampling rate : 48.0 kHz
Frame rate : 31.250 FPS (1536 SPF)
Compression mode : Lossy
Delay relative to video : 83 ms
Stream size : 502 MiB (6%)
Title : Alita.Battle.Angel.2019.1080p.AMZN.WEBRip.DDP5.1.Atmos.x264-FGT
Language : English
Service kind : Complete Main
Default : Yes
Forced : No
Complexity index : 16
Number of dynamic objects : 15
Bed channel count : 1 channel
Bed channel configuration : LFE

Text #1
ID : 3
Format : UTF-8
Codec ID : S_TEXT/UTF8
Codec ID/Info : UTF-8 Plain Text
Duration : 2 h 0 min
Bit rate : 39 b/s
Count of elements : 1348
Stream size : 34.9 KiB (0%)
Language : English
Default : No
Forced : No

Text #2
ID : 4
Format : UTF-8
Codec ID : S_TEXT/UTF8
Codec ID/Info : UTF-8 Plain Text
Duration : 2 h 0 min
Bit rate : 43 b/s
Count of elements : 1589
Stream size : 38.4 KiB (0%)
Title : SDH
Language : English
Default : No
Forced : No

Menu
00:00:00.000 : en:Scene 1
00:00:27.000 : en:Scene 2
00:05:23.000 : en:Scene 3
00:13:08.000 : en:Scene 4
00:18:06.000 : en:Scene 5
00:23:00.000 : en:Scene 6
00:25:40.000 : en:Scene 7
00:33:30.000 : en:Scene 8
00:36:34.000 : en:Scene 9
00:37:47.000 : en:Scene 10
00:38:32.000 : en:Scene 11
00:41:07.000 : en:Scene 12
00:45:59.000 : en:Scene 13
00:48:32.000 : en:Scene 14
00:52:58.000 : en:Scene 15
00:55:16.000 : en:Scene 16
01:02:58.000 : en:Scene 17
01:10:24.000 : en:Scene 18
01:16:36.000 : en:Scene 19
01:18:53.000 : en:Scene 20
01:22:50.000 : en:Scene 21
01:24:57.000 : en:Scene 22
01:28:26.000 : en:Scene 23
01:36:10.000 : en:Scene 24
01:38:42.000 : en:Scene 25
01:43:29.000 : en:Scene 26
01:44:46.000 : en:Scene 27
01:51:45.000 : en:Scene 28
01:54:31.000 : en:Scene 29
01:56:53.000 : en:Scene 30
01:56:56.000 : en:Scene 31

上传的附件:
最新回复 (0)
返回
发新帖