[美国][动作][真实的谎言][1080p.AMZN.WEBRip.DDP5.1.x264/10.27 GB][英语英文] 90年代 欧美 动作 喜剧 惊悚 犯罪 1080p

mfxz 3月前 154

导演: 詹姆斯·卡梅隆

编剧: 詹姆斯·卡梅隆

主演: 阿诺·施瓦辛格 / 杰米·李·柯蒂斯 / 汤姆·阿诺德 / 比尔·帕克斯顿 / 蒂亚·卡雷尔

类型: 喜剧 / 动作 / 惊悚

制片国家/地区: 美国

语言: 英语 / 德语 / 阿拉伯语 / 法语

上映日期: 1995-04-20(中国大陆) / 1994-07-15(美国) / 1994-08-12(英国)

片长: 141分钟

又名: 真实谎言 / 魔鬼大帝:真实的谎言

IMDb链接: tt0111503


真实的谎言的剧情简介 · · · · · ·

  哈里(阿诺•施瓦辛格 Arnold Schwarzenegger 饰)是美国FBI的高级特工,他正在奉命调查一起跨国核武器走私案件。出于安全考虑,哈里连结婚15年的妻子海伦(杰米•李•柯蒂斯 Jamie Lee Curtis 饰)都没有告诉他的真实身份。 

  海伦是一名普通白领,平凡的生活已令她心生厌倦。一次,汽车商西蒙假扮FBI特工,溜到海伦家谎称自己被人追杀。紧张刺激的经历很快令海伦着迷。 

  这一切都没有逃过真正的FBI特工哈里眼睛。哈里利用间谍侦查手段令到西蒙洋相百出,并化妆成法国人正欲调戏海伦时,被恐怖分子突然袭击,两人被挟持到一个热带小岛。哈里和海伦最终能否逃出生天,挫败恐怖分子阴谋? 




Video
ID : 1
Format : AVC
Format/Info : Advanced Video Codec
Format profile : High@L4
Format settings : CABAC / 4 Ref Frames
Format settings, CABAC : Yes
Format settings, ReFrames : 4 frames
Codec ID : V_MPEG4/ISO/AVC
Duration : 2 h 20 min
Bit rate mode : Constant
Bit rate : 10 000 kb/s
Width : 1 920 pixels
Height : 816 pixels
Display aspect ratio : 2.35:1
Original display aspect ratio : 2.35:1
Frame rate mode : Constant
Frame rate : 23.976 (24000/1001) FPS
Color space : YUV
Chroma subsampling : 4:2:0
Bit depth : 8 bits
Scan type : Progressive
Bits/(Pixel*Frame) : 0.266
Stream size : 9.64 GiB (94%)
Language : English
Default : Yes
Forced : No
Color range : Limited
Color primaries : BT.709
Transfer characteristics : BT.709
Matrix coefficients : BT.709

Audio
ID : 2
Format : E-AC-3
Format/Info : Enhanced AC-3
Commercial name : Dolby Digital Plus
Codec ID : A_EAC3
Duration : 2 h 20 min
Bit rate mode : Constant
Bit rate : 640 kb/s
Channel(s) : 6 channels
Channel layout : L R C LFE Ls Rs
Sampling rate : 48.0 kHz
Frame rate : 31.250 FPS (1536 SPF)
Compression mode : Lossy
Stream size : 644 MiB (6%)
Language : English
Service kind : Complete Main
Default : Yes
Forced : No

Text #1
ID : 3
Format : UTF-8
Codec ID : S_TEXT/UTF8
Codec ID/Info : UTF-8 Plain Text
Duration : 2 h 19 min
Bit rate : 47 b/s
Count of elements : 1881
Stream size : 48.5 KiB (0%)
Language : English
Default : No
Forced : No

Text #2
ID : 4
Format : UTF-8
Codec ID : S_TEXT/UTF8
Codec ID/Info : UTF-8 Plain Text
Duration : 2 h 20 min
Bit rate : 51 b/s
Count of elements : 2079
Stream size : 52.9 KiB (0%)
Title : SDH
Language : English
Default : No
Forced : No

Menu
00:00:00.000 : en:Studio Logos
00:00:25.990 : en:Harry infiltrates a soiree to secure important files, Opening Credits
00:11:12.990 : en:Harry makes a daring escape back to his team
00:14:09.990 : en:Harry plays the part of the family dad to no avail
00:18:50.990 : en:Gibs gives Harry the facts of life on teenage girls, the team briefs Tribly
00:22:06.990 : en:Helen gripes to a co-worker about her lack luster romance
00:22:27.990 : en:Gibs and Faisil find a link to Khaled\'s back dealings
00:23:21.990 : en:Harry meets with Juno about antiques
00:25:19.990 : en:Salim reprimands Juno for jeopardizing the mission
00:26:17.990 : en:Helen calls to make sure Harry will be home for his birthday dinner
00:27:01.990 : en:Salim and his henchmen tail Harry who is hot on their trail
00:33:18.990 : en:Harry and Gibs hunt down Salim
00:40:38.990 : en:Harry misses yet another family occasion
00:41:26.990 : en:Harry and his team ID Salim and his regime
00:42:29.990 : en:Harry discovers Helen has a mystery man
00:45:42.990 : en:Harry questions Helen about her day
00:47:07.990 : en:Harry has Helen\'s phone tapped
00:48:30.990 : en:Helen lies to Harry about her lunch plans
00:49:56.990 : en:Harry and Gibs follow Helen to her lunch rendezvous
00:52:28.990 : en:Harry pretends to need a car in order to talk to Simon
00:56:35.990 : en:Harry and Gibs race to Helen\'s tryst with Simon
01:00:29.990 : en:Simon asks Helen to go to Paris with him
01:04:51.990 : en:Helen is interrogated and Harry gives Helen an espionage assignment
01:12:53.990 : en:Harry threatens Simon
01:15:00.990 : en:Helen receives orders for her new mission
01:16:20.990 : en:Helen gets further orders and assumes her role
01:19:00.990 : en:Helen performs for the supposed arms dealer
01:26:14.990 : en:Visitors ruin Helen and Harry\'s reunion
01:27:00.990 : en:Harry tries to convince the terrorists to release Helen
01:28:49.990 : en:Helen learns the truth about Harry
01:32:48.990 : en:Salim reveals his plan, Faisil and Gibs are en route to rescue the Taskers
01:34:52.990 : en:Harry and Helen are taken to interrogation
01:38:43.990 : en:Salim makes a discovery
01:42:07.990 : en:Salim arms the bomb, Harry and Helen are the only hope
01:44:37.990 : en:Helen comes through for Harry
01:46:35.990 : en:Harry picks off bad guys, Juno takes Helen hostage
01:49:59.990 : en:Gibs and Faisil arrive to rescue Harry, Gibs and Harry call in the cavalry
01:51:51.990 : en:Harry gives orders to take out the bridge
01:55:05.990 : en:Helen fights Juno, Harry races to save Helen
01:59:01.990 : en:Gibs has more bad news for Harry
02:03:17.990 : en:Dana foils his plan
02:06:02.990 : en:Dana is in Peril, Harry fights to save her from Salim
02:12:12.990 : en:Dana is safe and Harry breathes his first easy breath
02:13:15.990 : en:Harry and his new partner are given a mission
02:16:34.990 : en:End Credits

上传的附件:
最新回复 (0)
返回
发新帖