[美国][动作][断了气][1080p.BluRay.X264/7.64 GB][英语英文] 80年代 欧美 动作 爱情 惊悚 1080p

mfxz 3月前 130

导演: 吉姆·麦克布莱德

编剧: L.M. Kit Carson / 吉姆·麦克布莱德 / 让-吕克·戈达尔

主演: 理查·基尔 / 范蕾丽尔·卡帕里斯基 / 阿特·梅特拉诺 / 约翰·P.瑞安

类型: 剧情 / 动作 / 爱情 / 惊悚

制片国家/地区: 美国

语言: 英语

上映日期: 1983-05-13

片长: 100 分钟

又名: 欲海惊魂 / 筋疲力尽

IMDb链接: tt0085276


断了气的剧情简介 · · · · · ·

  杰西(理查·基尔 Richard Gere 饰)是一个桀骜不驯又特立独行的青年,过着放荡不羁的生活。杰西在拉斯维加斯偷了一辆车,并和警方发生了交火,意外中,杰西杀死了一名警察,成为了通缉犯。无奈之下,杰西只得踏上逃亡的旅途,他的目的地是洛杉矶。 

  在洛杉矶,杰西找到了之前结识的女孩莫妮卡(范蕾丽尔·卡帕里斯基 Valérie Kaprisky 饰),对莫妮卡一见钟情的杰西希望前者能够和他一起去墨西哥生活。莫妮卡出生在一个非常保守的家庭之中,过着循规蹈矩的生活,杰西的大胆建议让她心动不已。然而,最终,莫妮卡发现了杰西的通缉令,意识到自己一直和一名杀人犯在一起,慌乱之中,莫妮卡报了警。







Video
ID : 1
Format : AVC
Format/Info : Advanced Video Codec
Format profile : High@L4.1
Format settings, CABAC : Yes
Format settings, ReFrames : 4 frames
Codec ID : V_MPEG4/ISO/AVC
Duration : 1 h 40 min
Bit rate : 9 388 kb/s
Width : 1 920 pixels
Height : 1 040 pixels
Display aspect ratio : 1.85:1
Frame rate mode : Constant
Frame rate : 23.976 (24000/1001) FPS
Color space : YUV
Chroma subsampling : 4:2:0
Bit depth : 8 bits
Scan type : Progressive
Bits/(Pixel*Frame) : 0.196
Stream size : 6.43 GiB (84%)
Writing library : x264 core 146 r2538 121396c
Encoding settings : cabac=1 / ref=4 / deblock=1:-1:-1 / analyse=0x3:0x113 / me=umh / subme=7 / psy=1 / psy_rd=1.00:0.00 / mixed_ref=1 / me_range=16 / chroma_me=1 / trellis=1 / 8x8dct=1 / cqm=0 / deadzone=21,11 / fast_pskip=1 / chroma_qp_offset=-2 / threads=12 / lookahead_threads=2 / sliced_threads=0 / nr=0 / decimate=1 / interlaced=0 / bluray_compat=0 / constrained_intra=0 / bframes=3 / b_pyramid=2 / b_adapt=2 / b_bias=0 / direct=3 / weightb=1 / open_gop=0 / weightp=2 / keyint=250 / keyint_min=23 / scenecut=40 / intra_refresh=0 / rc_lookahead=40 / rc=2pass / mbtree=1 / bitrate=9388 / ratetol=1.0 / qcomp=0.60 / qpmin=0 / qpmax=69 / qpstep=4 / cplxblur=20.0 / qblur=0.5 / vbv_maxrate=50000 / vbv_bufsize=50000 / nal_hrd=none / filler=0 / ip_ratio=1.40 / aq=1:1.00
Language : English
Default : Yes
Forced : No

Audio
ID : 2
Format : DTS
Format/Info : Digital Theater Systems
Mode : 16
Format settings, Endianness : Big
Codec ID : A_DTS
Duration : 1 h 40 min
Bit rate mode : Constant
Bit rate : 1 509 kb/s
Channel(s) : 2 channels
Channel positions : Front: L R
Sampling rate : 48.0 kHz
Frame rate : 93.750 FPS (512 spf)
Bit depth : 24 bits
Compression mode : Lossy
Stream size : 1.06 GiB (14%)
Language : English
Default : Yes
Forced : No

Text
ID : 3
Format : UTF-8
Codec ID : S_TEXT/UTF8
Codec ID/Info : UTF-8 Plain Text
Language : English
Default : Yes
Forced : No

上传的附件:
最新回复 (0)
返回
发新帖