[台湾][奇幻][带我去月球][1080p.BluRay.x264.DTS/10.58 GB][国语英文] 2017 华语 奇幻 1080p

mfxz 3月前 148

导演: 谢骏毅

编剧: 冯勃棣

主演: 刘以豪 / 宋芸桦 / 石知田 / 姚爱宁 / 李铨

类型: 剧情 / 奇幻

制片国家/地区: 台湾

语言: 汉语普通话

上映日期: 2017-12-01(台湾)

片长: 105分钟

又名: Take me to the moon

IMDb链接: tt7730928


带我去月球的剧情简介 · · · · · ·

  2017年,汪正翔(刘以豪 饰)在一次葬礼上与高中的死党们再度重聚,大家追忆着学生时代一起“犯二”的青葱岁月。谁知在参加完葬礼后,正翔经历了一场奇异事件,醒来后的他发现自己回到了高中毕业前的三天,与曾经暗恋的少女李恩佩(宋芸桦 饰)重逢,二人交往的画面也一幕幕浮现。原来性格大大咧咧的恩佩在毕业前的一次选秀中脱颖而出远赴日本追梦,正翔无奈失去了告白的机会……为了改变命运,来自未来的正翔决定打乱恩佩的计划,为了“搅黄”选秀俨然变成了“麻烦制造者”,做出了一堆令人哭笑不得的糗事,而他与恩佩的关系也在制造麻烦中发生了变化。




Video
ID : 1
Format : AVC
Format/Info : Advanced Video Codec
Format profile : High@L4.1
Format settings : CABAC / 5 Ref Frames
Format settings, CABAC : Yes
Format settings, ReFrames : 5 frames
Codec ID : V_MPEG4/ISO/AVC
Duration : 1 h 44 min
Bit rate : 13.0 Mb/s
Width : 1 920 pixels
Height : 804 pixels
Display aspect ratio : 2.40:1
Frame rate mode : Constant
Frame rate : 23.976 (24000/1001) FPS
Color space : YUV
Chroma subsampling : 4:2:0
Bit depth : 8 bits
Scan type : Progressive
Bits/(Pixel*Frame) : 0.351
Stream size : 9.27 GiB (88%)
Writing library : x264 core 155 r2901 7d0ff22
Encoding settings : cabac=1 / ref=5 / deblock=1:-3:-3 / analyse=0x3:0x133 / me=umh / subme=11 / psy=1 / psy_rd=1.00:0.00 / mixed_ref=1 / me_range=48 / chroma_me=1 / trellis=2 / 8x8dct=1 / cqm=0 / deadzone=21,11 / fast_pskip=1 / chroma_qp_offset=-2 / threads=18 / lookahead_threads=3 / sliced_threads=0 / nr=0 / decimate=1 / interlaced=0 / bluray_compat=0 / constrained_intra=0 / bframes=8 / b_pyramid=2 / b_adapt=2 / b_bias=0 / direct=3 / weightb=1 / open_gop=0 / weightp=2 / keyint=240 / keyint_min=24 / scenecut=40 / intra_refresh=0 / rc=2pass / mbtree=0 / bitrate=13000 / ratetol=1.0 / qcomp=0.60 / qpmin=0 / qpmax=69 / qpstep=4 / cplxblur=20.0 / qblur=0.5 / ip_ratio=1.30 / pb_ratio=1.20 / aq=3:0.80
Default : Yes
Forced : No
Color range : Limited
Color primaries : BT.709
Transfer characteristics : BT.709
Matrix coefficients : BT.709
Statistics Tags Issue : mkvmerge v34.0.0 (\'Sight and Seen\') 64-bit 2019-07-10 08:21:26 / mkvmerge v34.0.0 (\'Sight and Seen\') 64-bit 2019-07-10 08:21:26 / UTC 2019-07-09T03:15:14Z
FromStats_BitRate : 12997681
FromStats_Duration : 01:44:22.632000000
FromStats_FrameCount : 150153
FromStats_StreamSize : 10174961820

Audio
ID : 2
Format : DTS
Format/Info : Digital Theater Systems
Codec ID : A_DTS
Duration : 1 h 44 min
Bit rate mode : Constant
Bit rate : 1 509 kb/s
Channel(s) : 6 channels
Channel layout : C L R Ls Rs LFE
Sampling rate : 48.0 kHz
Frame rate : 93.750 FPS (512 SPF)
Bit depth : 24 bits
Compression mode : Lossy
Stream size : 1.10 GiB (10%)
Title : DTS 5.1
Language : Chinese
Default : Yes
Forced : No
Statistics Tags Issue : mkvmerge v34.0.0 (\'Sight and Seen\') 64-bit 2019-07-10 08:21:26 / mkvmerge v34.0.0 (\'Sight and Seen\') 64-bit 2019-07-10 08:21:26 / UTC 2019-07-09T03:15:14Z
FromStats_BitRate : 1508999
FromStats_Duration : 01:44:22.667000000
FromStats_FrameCount : 587125
FromStats_StreamSize : 1181295500

Text
ID : 3
Format : UTF-8
Codec ID : S_TEXT/UTF8
Codec ID/Info : UTF-8 Plain Text
Language : English
Default : Yes
Forced : No
Statistics Tags Issue : mkvmerge v34.0.0 (\'Sight and Seen\') 64-bit 2019-07-10 08:21:26 / mkvmerge v34.0.0 (\'Sight and Seen\') 64-bit 2019-07-10 08:21:26 / UTC 2019-07-09T03:15:14Z
FromStats_BitRate : 49
FromStats_Duration : 01:38:01.955000000
FromStats_FrameCount : 1771
FromStats_StreamSize : 36391

上传的附件:
最新回复 (0)
返回
发新帖