[大陆][香港][动作][逆战][1080p.BluRay.x264.DTS/13.05 GB][粤语英文] 2012 华语 动作 惊悚 犯罪 1080p

mfxz 3月前 174

导演: 林超贤

编剧: 林超贤 / 吴炜伦

主演: 周杰伦 / 谢霆锋 / 林鹏 / 白冰 / 安志杰

类型: 剧情 / 动作 / 惊悚 / 犯罪

制片国家/地区: 香港 / 中国大陆

语言: 汉语普通话 / 粤语

上映日期: 2012-01-17(中国大陆)

片长: 122分钟

又名: The Viral Factor

IMDb链接: tt2063011


逆战的剧情简介 · · · · · ·

  国际安全局的王尚恩(安志杰 饰)率万飞(周杰伦 饰)等部下远赴约旦,押送制造天花病毒变体的科学家肯纳,岂料王尚恩叛变将肯纳劫走,万飞头部受重伤,他同队中的心上人也在这次任务中身亡。三个月后,王尚恩等人研制的病毒造成一艘货船上的人们尽数死亡,而他此时准备贩卖疫苗谋取暴利;万飞在医院中被告知头部的子弹无法取出,神经受损导致他两周后会有生命危险,万母向其透露他有一个失散多年的哥哥。为了完成母亲心愿,万飞前往吉隆坡寻找哥哥万阳(谢霆锋 饰)。飞机上与万飞同行的简博士恰巧是王尚恩一伙准备用来替换肯纳的病毒专家,简博士被王尚恩派出的万阳劫持,万飞出手相救。因为分属不同阵营,兄弟只得拳脚相见……




Video
ID : 1
Format : AVC
Format/Info : Advanced Video Codec
Format profile : High@L4.1
Format settings : CABAC / 5 Ref Frames
Format settings, CABAC : Yes
Format settings, ReFrames : 5 frames
Codec ID : V_MPEG4/ISO/AVC
Duration : 2 h 2 min
Bit rate : 13.8 Mb/s
Width : 1 920 pixels
Height : 816 pixels
Display aspect ratio : 2.35:1
Frame rate mode : Constant
Frame rate : 24.000 FPS
Color space : YUV
Chroma subsampling : 4:2:0
Bit depth : 8 bits
Scan type : Progressive
Bits/(Pixel*Frame) : 0.367
Stream size : 11.8 GiB (90%)
Title : THE.VIRAL.FACTOR.2011
Writing library : x264 core 120 r2146 bcd41db
Encoding settings : cabac=1 / ref=5 / deblock=1:-3:-3 / analyse=0x3:0x113 / me=umh / subme=10 / psy=1 / psy_rd=1.05:0.10 / mixed_ref=1 / me_range=32 / chroma_me=1 / trellis=2 / 8x8dct=1 / cqm=0 / deadzone=21,11 / fast_pskip=0 / chroma_qp_offset=-2 / threads=8 / sliced_threads=0 / nr=0 / decimate=1 / interlaced=0 / bluray_compat=0 / constrained_intra=0 / bframes=6 / b_pyramid=2 / b_adapt=2 / b_bias=0 / direct=3 / weightb=1 / open_gop=0 / weightp=2 / keyint=250 / keyint_min=24 / scenecut=40 / intra_refresh=0 / rc=2pass / mbtree=0 / bitrate=13785 / ratetol=1.0 / qcomp=0.70 / qpmin=0 / qpmax=69 / qpstep=4 / cplxblur=20.0 / qblur=0.5 / ip_ratio=1.40 / pb_ratio=1.30 / aq=2:0.90
Language : Chinese
Default : No
Forced : No

Audio
ID : 2
Format : DTS
Format/Info : Digital Theater Systems
Codec ID : A_DTS
Duration : 2 h 2 min
Bit rate mode : Constant
Bit rate : 1 509 kb/s
Channel(s) : 6 channels
Channel layout : C L R Ls Rs LFE
Sampling rate : 48.0 kHz
Frame rate : 93.750 FPS (512 SPF)
Bit depth : 24 bits
Compression mode : Lossy
Stream size : 1.29 GiB (10%)
Title : DTS-CORE 1536K
Language : Chinese
Default : Yes
Forced : No

Text
ID : 3
Format : UTF-8
Codec ID : S_TEXT/UTF8
Codec ID/Info : UTF-8 Plain Text
Duration : 1 h 56 min
Bit rate : 29 b/s
Count of elements : 871
Stream size : 25.4 KiB (0%)
Language : English
Default : Yes
Forced : No

上传的附件:
最新回复 (0)
返回
发新帖