[大陆][奇幻][反转人生][1080p.AMZN.WEBRip.DDP5.1.x264/5.51 GB][国语英文] 2017 华语 喜剧 奇幻 1080p

mfxz 3月前 112

导演: 伍仕贤

编剧: 伍仕贤 / 贾斯汀·麦伦

主演: 夏雨 / 闫妮 / 潘斌龙 / 宋茜 / 吴大维

类型: 喜剧 / 奇幻

制片国家/地区: 中国大陆

语言: 汉语普通话

上映日期: 2017-06-29(中国大陆)

片长: 110分钟

又名: Wished

IMDb链接: tt3308358


反转人生的剧情简介 · · · · · ·

  保险推销员马奋斗(夏雨饰)空有满腔抱负却郁郁不得志,在和女朋友姗姗(宋茜饰)分手后他的人生彻底跌入谷底。然而,神秘人物(闫妮饰)的出现却颠覆了他的生活轨迹,作为一位史上最任性的土地娘,她将马奋斗许过的19个愿望一个个实现,马奋斗一步步走上人生巅峰却引发了一系列爆笑离奇的反转故事。




Video
ID : 1
Format : AVC
Format/Info : Advanced Video Codec
Format profile : High@L4
Format settings : CABAC / 4 Ref Frames
Format settings, CABAC : Yes
Format settings, ReFrames : 4 frames
Codec ID : V_MPEG4/ISO/AVC
Duration : 1 h 50 min
Bit rate mode : Constant
Bit rate : 6 525 kb/s
Nominal bit rate : 10 000 kb/s
Width : 1 920 pixels
Height : 800 pixels
Display aspect ratio : 2.40:1
Frame rate mode : Constant
Frame rate : 24.000 FPS
Color space : YUV
Chroma subsampling : 4:2:0
Bit depth : 8 bits
Scan type : Progressive
Bits/(Pixel*Frame) : 0.177
Stream size : 5.02 GiB (91%)
Default : Yes
Forced : No
Color range : Limited
Color primaries : BT.709
Transfer characteristics : BT.709
Matrix coefficients : BT.709

Audio
ID : 2
Format : E-AC-3
Format/Info : Enhanced AC-3
Commercial name : Dolby Digital Plus
Codec ID : A_EAC3
Duration : 1 h 50 min
Bit rate mode : Constant
Bit rate : 640 kb/s
Channel(s) : 6 channels
Channel layout : L R C LFE Ls Rs
Sampling rate : 48.0 kHz
Frame rate : 31.250 FPS (1536 SPF)
Compression mode : Lossy
Stream size : 504 MiB (9%)
Service kind : Complete Main
Default : Yes
Forced : No

Text
ID : 3
Format : UTF-8
Codec ID : S_TEXT/UTF8
Codec ID/Info : UTF-8 Plain Text
Duration : 1 h 44 min
Bit rate : 56 b/s
Count of elements : 1871
Stream size : 43.2 KiB (0%)
Title : English [CC]
Language : English
Default : Yes
Forced : No

上传的附件:
最新回复 (0)
返回
发新帖