[日本][动画][银发的阿基多][DUBBED.1080p.BluRay.x264/4.38 GB][英语无字] 00年代 日本 爱情 科幻 动画 1080p

mfxz 3月前 149

导演: 杉山庆一 

编剧: 椎名奈菜 / 柿本直子 / 饭田马之介

主演: 胜地凉 / 古手川祐子 / 宫崎葵 / 大杉涟 / 远藤宪一

类型: 剧情 / 爱情 / 科幻 / 动画

制片国家/地区: 日本

语言: 日语

上映日期: 2006-01-07(日本)

片长: 95分钟

又名: 银发阿基德 / 银色头发的阿基德 / 银发阿基特 / Origin: Spirits of the Past

IMDb链接: tt0493247


银发的阿基多的剧情简介 · · · · · ·

  人类企图修改植物的遗传因子,以此达到控制植物的目的,而计划失败,树木则渐渐产生了思想,开始了无节制的生长,使得地球遭到了毁灭性的破坏。时间荏苒,在遭到树木袭击后,残留下的人类为求生存选择了和森林和平相处。直至一天,阿基德(胜地凉 配音)与好友凯因(滨口优 配音)偷偷溜进了禁忌之泉取水,在那里,阿基德发现了一个闪耀着光芒的东西,以及沉睡在其中的少女图拉(宫崎葵 配音),阿基德唤醒了沉睡的图拉,交谈中得知她是三百年前的人类。“中立都市”的人们十分友好的款待着图拉,但森林却像怪兽一样对她展开了攻击。就在此时,与森林敌对的都市“莱克那”来了一个自称来自过去的男人修那克(远藤宪一 配音),声称图拉是让世界恢复的关键,这究竟是怎么一回事呢?等待这他们的宿命又是什么……




Video
ID : 1
Format : AVC
Format/Info : Advanced Video Codec
Format profile : High@L4.1
Format settings : CABAC / 4 Ref Frames
Format settings, CABAC : Yes
Format settings, ReFrames : 4 frames
Codec ID : V_MPEG4/ISO/AVC
Duration : 1 h 34 min
Bit rate : 6 004 kb/s
Width : 1 920 pixels
Height : 1 080 pixels
Display aspect ratio : 16:9
Frame rate mode : Constant
Frame rate : 23.976 (23976/1000) FPS
Color space : YUV
Chroma subsampling : 4:2:0
Bit depth : 8 bits
Scan type : Progressive
Bits/(Pixel*Frame) : 0.121
Stream size : 3.87 GiB (88%)
Writing library : x264 core 68 r1183M f21daff
Encoding settings : cabac=1 / ref=4 / deblock=1:0:0 / analyse=0x3:0x133 / me=umh / subme=7 / psy_rd=1.0:0.0 / mixed_ref=1 / me_range=16 / chroma_me=1 / trellis=1 / 8x8dct=1 / cqm=0 / deadzone=21,11 / chroma_qp_offset=-2 / threads=6 / nr=0 / decimate=1 / mbaff=0 / bframes=3 / b_pyramid=1 / b_adapt=1 / b_bias=0 / direct=1 / wpredb=1 / keyint=250 / keyint_min=25 / scenecut=40 / rc=2pass / bitrate=6004 / ratetol=1.0 / qcomp=0.60 / qpmin=10 / qpmax=51 / qpstep=4 / cplxblur=20.0 / qblur=0.5 / ip_ratio=1.40 / pb_ratio=1.30 / aq=1:1.00
Language : English
Default : Yes
Forced : No

Audio
ID : 2
Format : AC-3
Format/Info : Audio Coding 3
Commercial name : Dolby Digital
Codec ID : A_AC3
Duration : 1 h 34 min
Bit rate mode : Constant
Bit rate : 640 kb/s
Channel(s) : 6 channels
Channel layout : L R C LFE Ls Rs
Sampling rate : 48.0 kHz
Frame rate : 31.250 FPS (1536 SPF)
Bit depth : 16 bits
Compression mode : Lossy
Stream size : 431 MiB (10%)
Service kind : Complete Main
Default : Yes
Forced : No

上传的附件:
最新回复 (0)
返回
发新帖