[意大利/美国][战争][西西里的美丽传说][UNCUT.1080p.BluRay.x264/7.94 GB][意语英文] 00年代 欧美 合拍 战争 1080p

mfxz 3月前 133

导演: 朱塞佩·托纳多雷

编剧: 朱塞佩·托纳多雷 / 卢恰诺·温琴佐尼

主演: 莫妮卡·贝鲁奇 / 朱塞佩·苏尔法罗 / Luciano Federico / 玛蒂尔德·皮亚纳

类型: 剧情 / 情色 / 战争

制片国家/地区: 意大利 / 美国

语言: 意大利语 / 英语 / 拉丁语 / 古希腊语

上映日期: 2000-10-27(意大利)

片长: 109 分钟 / USA: 92 分钟(heavily cut) / Turkey: 84 分钟(TV version)

又名: 真爱伴我行(台) / 玛莲娜 / 玛琳娜

IMDb链接: tt0213847


西西里的美丽传说的剧情简介 · · · · · ·

  当我还只是十三岁时,1941年春末的那一天,我初次见到了她那一天,墨索里尼向英法宣战,而我,得到了生命里的第一辆脚踏车。 

  她,撩著波浪状黑亮的秀发,穿著最时髦的短裙和丝袜,踏著充满情欲诱惑的高跟鞋,来到了西西里岛上宁静的阳光小镇。她的一举一动都引人瞩目、勾人遐想,她的一颦一笑都教男人心醉、女人羡妒。玛莲娜,像个女神一般,征服了这个海滨的天堂乐园。 

  年仅十三岁的雷纳多也不由自主地掉进了玛莲娜所掀起的漩涡之中,他不仅跟著其他年纪较大的青少年们一起骑著单车,穿梭在小镇的各个角落,搜寻著玛莲娜的诱人丰姿与万种风情,还悄悄地成为她不知情的小跟班,如影随形地跟监、窥视她的生活。她摇曳的倩影、她聆听的音乐、她贴身的衣物都成为这个被荷尔蒙淹没的少年,最真实、最美好的情欲幻想。 

  然而,透过雷纳多的眼,我们也看到了玛莲娜掉进了越来越黑暗的处境之中,她变成了寡妇,而在镇民们的眼中,她也成了不折不扣的祸水,带来了淫欲、嫉妒与忿怒,而一股夹杂著情欲与激愤的风暴,开始袭卷这个连战争都未曾侵扰的小镇。 

  玛莲娜一步步地沉沦,与父亲断绝了关系、被送上法院,更失去了所有的财产,这使得向来天真、不经世事的雷纳多,被迫面对这纯朴小镇中,人心的残暴无情,看著已经一无所有的玛莲娜,雷纳多竟鼓起了他所不曾有过的勇气,决定靠著他自己的力量,以一种教人难以料想的方式,来帮助玛莲娜走出生命的泥沼……


西西里的美丽传说 Malèna 获奖情况

第73届奥斯卡金像奖  (2001)

最佳摄影(提名) 拉乔斯·科泰

最佳原创配乐(提名) 恩尼奥·莫里康内

第51届柏林国际电影节  (2001)

金熊奖 最佳影片(提名) 朱塞佩·托纳多雷

第54届英国电影学院奖  (2001)

电影奖 最佳非英语片(提名) 哈维·韦恩斯坦 / Carlo Bernasconi / 朱塞佩·托纳多雷





Video
ID : 1
Format : AVC
Format/Info : Advanced Video Codec
Format profile : High@L4.1
Format settings : CABAC / 5 Ref Frames
Format settings, CABAC : Yes
Format settings, ReFrames : 5 frames
Muxing mode : Header stripping
Codec ID : V_MPEG4/ISO/AVC
Duration : 1 h 48 min
Bit rate : 9 015 kb/s
Width : 1 920 pixels
Height : 816 pixels
Display aspect ratio : 2.35:1
Frame rate mode : Constant
Frame rate : 23.976 FPS
Color space : YUV
Chroma subsampling : 4:2:0
Bit depth : 8 bits
Scan type : Progressive
Bits/(Pixel*Frame) : 0.240
Stream size : 6.65 GiB (84%)
Writing library : x264 core 130 r2273 b3065e6
Encoding settings : cabac=1 / ref=5 / deblock=1:0:0 / analyse=0x3:0x113 / me=umh / subme=7 / psy=1 / psy_rd=1.00:0.00 / mixed_ref=1 / me_range=16 / chroma_me=1 / trellis=1 / 8x8dct=1 / cqm=0 / deadzone=21,11 / fast_pskip=0 / chroma_qp_offset=-2 / threads=12 / lookahead_threads=2 / sliced_threads=0 / nr=0 / decimate=1 / interlaced=0 / bluray_compat=0 / constrained_intra=0 / bframes=3 / b_pyramid=2 / b_adapt=1 / b_bias=0 / direct=1 / weightb=1 / open_gop=0 / weightp=2 / keyint=250 / keyint_min=23 / scenecut=40 / intra_refresh=0 / rc_lookahead=40 / rc=2pass / mbtree=1 / bitrate=9015 / ratetol=1.0 / qcomp=0.60 / qpmin=0 / qpmax=69 / qpstep=4 / cplxblur=20.0 / qblur=0.5 / ip_ratio=1.40 / aq=1:1.00
Language : English
Default : Yes
Forced : No

Audio
ID : 2
Format : DTS
Format/Info : Digital Theater Systems
Muxing mode : Header stripping
Codec ID : A_DTS
Duration : 1 h 48 min
Bit rate mode : Constant
Bit rate : 1 509 kb/s
Channel(s) : 6 channels
Channel layout : C L R Ls Rs LFE
Sampling rate : 48.0 kHz
Frame rate : 93.750 FPS (512 SPF)
Bit depth : 24 bits
Compression mode : Lossy
Stream size : 1.14 GiB (14%)
Language : Italian
Default : Yes
Forced : No

Text
ID : 3
Format : UTF-8
Codec ID : S_TEXT/UTF8
Codec ID/Info : UTF-8 Plain Text
Language : English
Default : Yes
Forced : No

上传的附件:
最新回复 (0)
返回
发新帖