[香港][纪录片][李小龙的生与死][1080p.BluRay.x264.DTS/7.80 GB][粤语英文] 更早 华语 纪录 1080p

mfxz 3月前 181

导演: 何冠昌

主演: 李小龙

类型: 纪录片

制片国家/地区: 香港

语言: 粤语 / 英语 / 汉语普通话

上映日期: 1973-10-14(香港)

片长: Spain: 85 分钟 / USA: 85 分钟

又名: Bruce Lee: The Man and the Legend / Hombre y su leyenda, El

IMDb链接: tt0198652


李小龙的生与死的剧情简介 · · · · · ·

  本片详细介绍李小龙从儿童,少年以及成长后的一生,当中剪辑了很多从未公开的珍贵片断,也有他的珍贵电影片断,包括幼时随父亲同时出现银幕,让我们一同回顾一代巨星李小龙得一生传奇……




Video
ID : 1
Format : AVC
Format/Info : Advanced Video Codec
Format profile : High@L4.1
Format settings : CABAC / 4 Ref Frames
Format settings, CABAC : Yes
Format settings, ReFrames : 4 frames
Codec ID : V_MPEG4/ISO/AVC
Duration : 1 h 25 min
Bit rate : 11.5 Mb/s
Width : 1 920 pixels
Height : 816 pixels
Display aspect ratio : 2.35:1
Frame rate mode : Constant
Frame rate : 24.000 FPS
Color space : YUV
Chroma subsampling : 4:2:0
Bit depth : 8 bits
Scan type : Progressive
Bits/(Pixel*Frame) : 0.306
Stream size : 6.90 GiB (88%)
Title : Bruce.Lee.The.Man.And.The.Legend.1973.CHINESE.1080p.BluRay.x264.DTS-FGT
Writing library : x264 core 148 r2795M aaa9aa8
Encoding settings : cabac=1 / ref=4 / deblock=1:-2:-2 / analyse=0x3:0x113 / me=umh / subme=9 / psy=1 / psy_rd=1.00:0.15 / mixed_ref=1 / me_range=16 / chroma_me=1 / trellis=2 / 8x8dct=1 / cqm=0 / deadzone=21,11 / fast_pskip=1 / chroma_qp_offset=-3 / threads=24 / lookahead_threads=3 / sliced_threads=0 / nr=0 / decimate=1 / interlaced=0 / bluray_compat=0 / constrained_intra=0 / bframes=3 / b_pyramid=2 / b_adapt=1 / b_bias=0 / direct=3 / weightb=1 / open_gop=0 / weightp=2 / keyint=250 / keyint_min=25 / scenecut=40 / intra_refresh=0 / rc_lookahead=50 / rc=2pass / mbtree=1 / bitrate=11500 / ratetol=1.0 / qcomp=0.60 / qpmin=0 / qpmax=69 / qpstep=4 / cplxblur=20.0 / qblur=0.5 / vbv_maxrate=31250 / vbv_bufsize=31250 / nal_hrd=none / filler=0 / ip_ratio=1.40 / aq=1:1.00
Language : Chinese
Default : Yes
Forced : No

Audio
ID : 2
Format : DTS
Format/Info : Digital Theater Systems
Codec ID : A_DTS
Duration : 1 h 25 min
Bit rate mode : Constant
Bit rate : 1 509 kb/s
Channel(s) : 2 channels
Channel layout : L R
Sampling rate : 48.0 kHz
Frame rate : 93.750 FPS (512 SPF)
Bit depth : 16 bits
Compression mode : Lossy
Stream size : 927 MiB (12%)
Title : Bruce.Lee.The.Man.And.The.Legend.1973.CHINESE.1080p.BluRay.x264.DTS-FGT
Language : Chinese
Default : Yes
Forced : No

Text
ID : 3
Format : UTF-8
Codec ID : S_TEXT/UTF8
Codec ID/Info : UTF-8 Plain Text
Duration : 1 h 23 min
Bit rate : 35 b/s
Count of elements : 772
Stream size : 21.7 KiB (0%)
Language : English
Default : Yes
Forced : No

Menu
00:00:00.000 : en:Chapter 01
00:10:56.000 : en:Chapter 02
00:18:00.625 : en:Chapter 03
00:23:20.416 : en:Chapter 04
00:29:28.833 : en:Chapter 05
00:36:10.041 : en:Chapter 06
00:47:00.750 : en:Chapter 07
00:57:33.000 : en:Chapter 08
01:08:15.125 : en:Chapter 09
01:18:30.833 : en:Chapter 10

上传的附件:
最新回复 (0)
返回
发新帖