复仇者联盟4:终局之战.2019.BONUS.DISC.1080p.BluRay.REMUX.AVC.DD5.1-FGT 13.08 GB 英语简繁中字 2019 欧美 动作 科幻 奇幻 REMUX

7bt 29天前 127


导演: 安东尼·罗素 / 乔·罗素

编剧: 克里斯托弗·马库斯 / 斯蒂芬·麦克菲利 / 斯坦·李 / 杰克·科比 / 吉姆·斯特林

主演: 小罗伯特·唐尼 / 克里斯·埃文斯 / 马克·鲁弗洛 / 克里斯·海姆斯沃斯 / 斯嘉丽·约翰逊

类型: 动作 / 科幻 / 奇幻 / 冒险

制片国家/地区: 美国

语言: 英语 / 日语 / 科萨语

上映日期: 2019-04-24(中国大陆) / 2019-04-26(美国)

片长: 181分钟

又名: 复仇者联盟3:无尽之战(下) / 复联4 / Avengers: Infinity War - Part II / The Avengers 3: Part 2 / The Avengers 4: Endgame / AVG4

IMDb链接: tt4154796


复仇者联盟4:终局之战的剧情简介 · · · · · ·

  一声响指,宇宙间半数生命灰飞烟灭。几近绝望的复仇者们在惊奇队长(布丽·拉尔森 Brie Larson 饰)的帮助下找到灭霸(乔什·布洛林 Josh Brolin 饰)归隐之处,却得知六颗无限宝石均被销毁,希望彻底破灭。如是过了五年,迷失在量子领域的蚁人(保罗·路德 Paul Rudd 饰)意外回到现实世界,他的出现为幸存的复仇者们点燃了希望。与美国队长(克里斯·埃文斯 Chris Evans 饰)冰释前嫌的托尼(小罗伯特·唐尼 Robert Downey Jr. 饰)找到了穿越时空的方法,星散各地的超级英雄再度集结,他们分别穿越不同的时代去搜集无限宝石。而在这一过程中,平行宇宙的灭霸察觉了他们的计划。 

  注定要载入史册的最终决战,超级英雄们为了心中恪守的信念前仆后继……


复仇者联盟4:终局之战 Avengers: Endgame 获奖情况

第28届MTV电影奖  (2019)

MTV电影奖 年度电影 

MTV电影奖 最佳打斗(提名) 乔什·布洛林 / 克里斯·埃文斯

MTV电影奖 最佳反派 乔什·布洛林

MTV电影奖 最佳英雄形象 小罗伯特·唐尼



Video
ID : 1
Format : AVC
Format/Info : Advanced Video Codec
Format profile : High@L4.1
Format settings : CABAC / 4 Ref Frames
Format settings, CABAC : Yes
Format settings, Reference frames : 4 frames
Codec ID : V_MPEG4/ISO/AVC
Duration : 46 min 0 s
Bit rate mode : Variable
Bit rate : 34.9 Mb/s
Maximum bit rate : 38.0 Mb/s
Width : 1 920 pixels
Height : 1 080 pixels
Display aspect ratio : 16:9
Frame rate mode : Constant
Frame rate : 23.976 (24000/1001) FPS
Color space : YUV
Chroma subsampling : 4:2:0
Bit depth : 8 bits
Scan type : Progressive
Bits/(Pixel*Frame) : 0.702
Stream size : 11.2 GiB (98%)
Title : Avengers.Endgame.2019.BONUS.DISC.1080p.BluRay.REMUX.AVC.DD5.1-FGT
Language : English
Default : No
Forced : No

Audio
ID : 2
Format : AC-3
Format/Info : Audio Coding 3
Commercial name : Dolby Digital
Codec ID : A_AC3
Duration : 46 min 0 s
Bit rate mode : Constant
Bit rate : 640 kb/s
Channel(s) : 6 channels
Channel layout : L R C LFE Ls Rs
Sampling rate : 48.0 kHz
Frame rate : 31.250 FPS (1536 SPF)
Bit depth : 16 bits
Compression mode : Lossy
Stream size : 211 MiB (2%)
Title : Avengers.Endgame.2019.BONUS.DISC.1080p.BluRay.REMUX.AVC.DD5.1-FGT
Language : English
Service kind : Complete Main
Default : Yes
Forced : No

Text #1
ID : 3
Format : PGS
Muxing mode : zlib
Codec ID : S_HDMV/PGS
Codec ID/Info : Picture based subtitle format used on BDs/HD-DVDs
Duration : 45 min 51 s
Bit rate : 80.0 kb/s
Count of elements : 1938
Stream size : 26.2 MiB (0%)
Title : English-PGS
Language : English
Default : Yes
Forced : No

Text #2
ID : 4
Format : PGS
Muxing mode : zlib
Codec ID : S_HDMV/PGS
Codec ID/Info : Picture based subtitle format used on BDs/HD-DVDs
Duration : 45 min 49 s
Bit rate : 74.4 kb/s
Count of elements : 1952
Stream size : 24.4 MiB (0%)
Title : French-PGS
Language : French
Default : No
Forced : No

Text #3
ID : 5
Format : PGS
Muxing mode : zlib
Codec ID : S_HDMV/PGS
Codec ID/Info : Picture based subtitle format used on BDs/HD-DVDs
Duration : 45 min 49 s
Bit rate : 75.0 kb/s
Count of elements : 1954
Stream size : 24.6 MiB (0%)
Title : Spanish-PGS
Language : Spanish
Default : No
Forced : No

Text #4
ID : 6
Format : PGS
Muxing mode : zlib
Codec ID : S_HDMV/PGS
Codec ID/Info : Picture based subtitle format used on BDs/HD-DVDs
Duration : 45 min 49 s
Bit rate : 73.8 kb/s
Count of elements : 1990
Stream size : 24.2 MiB (0%)
Title : Portuguese-PGS
Language : Portuguese
Default : No
Forced : No

Text #5
ID : 7
Format : PGS
Muxing mode : zlib
Codec ID : S_HDMV/PGS
Codec ID/Info : Picture based subtitle format used on BDs/HD-DVDs
Duration : 45 min 49 s
Bit rate : 50.4 kb/s
Count of elements : 2028
Stream size : 16.5 MiB (0%)
Title : Chinese-PGS
Language : Chinese
Default : No
Forced : No

Text #6
ID : 8
Format : PGS
Muxing mode : zlib
Codec ID : S_HDMV/PGS
Codec ID/Info : Picture based subtitle format used on BDs/HD-DVDs
Duration : 45 min 49 s
Bit rate : 50.5 kb/s
Count of elements : 2030
Stream size : 16.6 MiB (0%)
Title : Chinese-PGS
Language : Chinese
Default : No
Forced : No

Menu
00:00:00.000 : en:Chapter 01
00:07:15.768 : en:Chapter 02
00:12:41.051 : en:Chapter 03
00:24:59.623 : en:Chapter 04
00:32:24.859 : en:Chapter 05
00:37:25.910 : en:Chapter 06
00:42:18.077 : en:Chapter 07



上传的附件:
最新回复 (0)
返回
发新帖