高材生.Booksmart.2019.INTERNAL.HDR.2160p.WEB.H265-DEFLATE 18.26 GB 2019 欧美 喜剧 4K

7bt 29天前 213

导演: 奥利维亚·王尔德

编剧: 苏珊娜·福格尔 / 凯瑟琳·西尔伯曼 / 艾米莉·哈尔彭 / 莎拉·哈斯金斯

主演: 比妮·费尔德斯坦 / 凯特琳·德弗 / 杰森·苏戴奇斯 / 丽莎·库卓 / 威尔·福特

类型: 喜剧

制片国家/地区: 美国

语言: 英语

上映日期: 2019-03-10(西南偏南电影节) / 2019-05-24(美国)

片长: 105分钟

又名: 优等生

IMDb链接: tt1489887


高材生的剧情简介 · · · · · ·

  讲述一对好友、两个学术天才和一群朋友在高中毕业前夕意识到她们应该少学习而多玩,为了不落后同龄人,她们开始了一项任务:将4年的快乐时光填满一个晚上。



Video
ID : 1
Format : HEVC
Format/Info : High Efficiency Video Coding
Format profile : Main 10@L5@High
HDR format : SMPTE ST 2086, HDR10 compatible
Codec ID : V_MPEGH/ISO/HEVC
Duration : 1 h 42 min
Bit rate : 24.4 Mb/s
Width : 3 840 pixels
Height : 1 604 pixels
Original height : 2 160 pixels
Display aspect ratio : 16:9
Frame rate mode : Constant
Frame rate : 23.976 (24000/1001) FPS
Color space : YUV
Chroma subsampling : 4:2:0 (Type 2)
Bit depth : 10 bits
Bits/(Pixel*Frame) : 0.165
Stream size : 17.4 GiB (96%)
Language : English
Default : Yes
Forced : No
Color range : Limited
Color primaries : BT.2020
Transfer characteristics : PQ
Matrix coefficients : BT.2020 non-constant
Mastering display color primaries : Display P3
Mastering display luminance : min: 0.0050 cd/m2, max: 1000 cd/m2

Audio
ID : 2
Format : E-AC-3
Format/Info : Enhanced AC-3
Commercial name : Dolby Digital Plus
Codec ID : A_EAC3
Duration : 1 h 42 min
Bit rate mode : Constant
Bit rate : 640 kb/s
Channel(s) : 6 channels
Channel layout : L R C LFE Ls Rs
Sampling rate : 48.0 kHz
Frame rate : 31.250 FPS (1536 SPF)
Compression mode : Lossy
Delay relative to video : 42 ms
Stream size : 468 MiB (3%)
Language : English
Service kind : Complete Main
Default : Yes
Forced : No

Text #1
ID : 3
Format : UTF-8
Codec ID : S_TEXT/UTF8
Codec ID/Info : UTF-8 Plain Text
Title : English (Forced)
Language : English
Default : Yes
Forced : Yes

Text #2
ID : 4
Format : UTF-8
Codec ID : S_TEXT/UTF8
Codec ID/Info : UTF-8 Plain Text
Title : English
Language : English
Default : No
Forced : No

Text #3
ID : 5
Format : UTF-8
Codec ID : S_TEXT/UTF8
Codec ID/Info : UTF-8 Plain Text
Title : English (SDH)
Language : English
Default : No
Forced : No

Text #4
ID : 6
Format : UTF-8
Codec ID : S_TEXT/UTF8
Codec ID/Info : UTF-8 Plain Text
Title : Spanish
Language : Spanish
Default : No
Forced : No

Menu
00:00:01.000 : en:Chapter 01
00:05:58.000 : en:Chapter 02
00:09:50.000 : en:Chapter 03
00:15:50.000 : en:Chapter 04
00:18:35.000 : en:Chapter 05
00:23:18.000 : en:Chapter 06
00:27:43.000 : en:Chapter 07
00:31:01.000 : en:Chapter 08
00:33:45.000 : en:Chapter 09
00:38:01.000 : en:Chapter 10
00:44:56.000 : en:Chapter 11
00:47:51.000 : en:Chapter 12
00:52:20.000 : en:Chapter 13
00:55:28.000 : en:Chapter 14
00:59:49.000 : en:Chapter 15
01:06:32.000 : en:Chapter 16
01:10:52.000 : en:Chapter 17
01:14:42.000 : en:Chapter 18
01:18:45.000 : en:Chapter 19
01:21:51.000 : en:Chapter 20
01:24:40.000 : en:Chapter 21
01:27:12.000 : en:Chapter 22
01:30:13.000 : en:Chapter 23
01:36:04.000 : en:Chapter 24

上传的附件:
最新回复 (0)
返回
发新帖