怒火/異能 The.Power.1984.1080p.BluRay.x264.DTS-7.52GB 90年代 欧美 恐怖 1080p

wzy311 28天前 152



◎译  名 怒火 / 異能(台)
◎片  名 The Power
◎年  代 1984
◎产  地 美国
◎类  别 恐怖
◎语  言 英语
◎上映日期 1984
◎IMDb评分  4.8/10 from 331 users
◎IMDb链接  http://www.imdb.com/title/tt0081366
◎豆瓣评分 0/10 from 0 users
◎豆瓣链接 https://movie.douban.com/subject/5051251/
◎片  长 84 分钟
◎编  剧 Stephen Carpenter

◎标  签 恐怖 | 美国 | 1984

◎简  介  

  A man comes into possession of an ancient Aztec doll. However, the doll is possessed by an evil spirit, which takes over his body.

Video
ID                                       : 1
Format                                   : AVC
Format/Info                              : Advanced Video Codec
Format profile                           : High@L4.1
Format settings, CABAC                   : Yes
Format settings, ReFrames                : 4 frames
Codec ID                                 : V_MPEG4/ISO/AVC
Duration                                 : 1 h 24 min
Bit rate                                 : 11.5 Mb/s
Width                                    : 1 920 pixels
Height                                   : 1 080 pixels
Display aspect ratio                     : 16:9
Frame rate mode                          : Constant
Frame rate                               : 23.976 (24000/1001) FPS
Color space                              : YUV
Chroma subsampling                       : 4:2:0
Bit depth                                : 8 bits
Scan type                                : Progressive
Bits/(Pixel*Frame)                       : 0.231
Stream size                              : 6.48 GiB (86%)
Title                                    : The.Power.1984.1080p.BluRay.x264.DTS-FGT
Writing library                          : x264 core 148 r2795 aaa9aa8
Encoding settings                        : cabac=1 / ref=4 / deblock=1:-2:-2 / analyse=0x3:0x113 / me=umh / subme=9 / psy=1 / psy_rd=1.00:0.15 / mixed_ref=1 / me_range=16 / chroma_me=1 / trellis=2 / 8x8dct=1 / cqm=0 / deadzone=21,11 / fast_pskip=1 / chroma_qp_offset=-3 / threads=24 / lookahead_threads=3 / sliced_threads=0 / nr=0 / decimate=1 / interlaced=0 / bluray_compat=0 / constrained_intra=0 / bframes=3 / b_pyramid=2 / b_adapt=2 / b_bias=0 / direct=3 / weightb=1 / open_gop=0 / weightp=2 / keyint=250 / keyint_min=25 / scenecut=40 / intra_refresh=0 / rc_lookahead=50 / rc=abr / mbtree=1 / bitrate=11500 / ratetol=1.0 / qcomp=0.60 / qpmin=0 / qpmax=69 / qpstep=4 / vbv_maxrate=31250 / vbv_bufsize=31250 / nal_hrd=none / filler=0 / ip_ratio=1.40 / aq=1:1.00
Language                                 : English
Default                                  : Yes
Forced                                   : No

Audio
ID                                       : 2
Format                                   : DTS
Format/Info                              : Digital Theater Systems
Mode                                     : 16
Format settings, Endianness              : Big
Codec ID                                 : A_DTS
Duration                                 : 1 h 24 min
Bit rate mode                            : Constant
Bit rate                                 : 1 509 kb/s
Channel(s)                               : 2 channels
Channel positions                        : Front: L R
Sampling rate                            : 48.0 kHz
Frame rate                               : 93.750 FPS (512 spf)
Bit depth                                : 24 bits
Compression mode                         : Lossy
Stream size                              : 910 MiB (12%)
Title                                    : The.Power.1984.1080p.BluRay.x264.DTS-FGT
Language                                 : English
Default                                  : Yes
Forced                                   : No

Menu
00:00:00.000                             : en:Chapter 01
00:06:36.521                             : en:Chapter 02
00:15:23.422                             : en:Chapter 03
00:22:44.905                             : en:Chapter 04
00:29:11.750                             : en:Chapter 05
00:37:28.162                             : en:Chapter 06
00:42:01.810                             : en:Chapter 07
00:49:25.170                             : en:Chapter 08
00:56:43.650                             : en:Chapter 09
01:01:03.451                             : en:Chapter 10
01:08:24.892                             : en:Chapter 11
01:17:20.218                             : en:Chapter 12
01:22:23.021                             : en:Chapter 13



上传的附件:
最新回复 (0)
返回
发新帖