叛逆者 Mad.Foxes.1981.DUBBED.1080p.BluRay.x264.DTS-6.43GB 90年代 欧美 剧情 1080p

wzy311 28天前 106



◎译  名 叛逆者 / Desperado's op wielen Netherlands (video box title) / Mad Foxes (undefined) / Stingray 2 Netherlands (video box title) / West Germany (video box title)
◎片  名 Los violadores
◎年  代 1982
◎产  地 西班牙 / 瑞士
◎类  别 动作 / 恐怖
◎语  言 西班牙语
◎上映日期 1982-04-19
◎IMDb评分  5.3/10 from 586 users
◎IMDb链接  http://www.imdb.com/title/tt0083291
◎豆瓣评分 0/10 from 0 users
◎豆瓣链接 https://movie.douban.com/subject/4074712/
◎片  长 77 分钟
◎导  演 Paul Grau
◎编  剧 Melvin Qui?ones / John R. Woodhand
◎主  演 José Gras ...  Hal (as Robert O'Neil)
       Laura Prennica
       Andrea Albani ...  Babsy (as Sally Sullivan)
       .......


◎标  签 情色 | 露点 | 裸体 | 暴力 | 西班牙 | 西班牙电影 | 伦理 | Cult

◎简  介  

  The story about a man who has a run-in with a vicious biker gang and chooses to fight back. Only, the fight escalates to epic proportions as he calls in friends, and neither side will allow the battle to end while the other side is still standing.

Video
ID                                       : 1
Format                                   : AVC
Format/Info                              : Advanced Video Codec
Format profile                           : High@L4.1
Format settings                          : CABAC / 4 Ref Frames
Format settings, CABAC                   : Yes
Format settings, Reference frames        : 4 frames
Codec ID                                 : V_MPEG4/ISO/AVC
Duration                                 : 1 h 20 min
Bit rate                                 : 10 000 kb/s
Width                                    : 1 920 pixels
Height                                   : 1 024 pixels
Display aspect ratio                     : 1.85:1
Frame rate mode                          : Constant
Frame rate                               : 24.000 FPS
Color space                              : YUV
Chroma subsampling                       : 4:2:0
Bit depth                                : 8 bits
Scan type                                : Progressive
Bits/(Pixel*Frame)                       : 0.212
Stream size                              : 5.59 GiB (87%)
Writing library                          : x264 core 142 r2479 dd79a61
Encoding settings                        : cabac=1 / ref=3 / deblock=1:0:0 / analyse=0x3:0x113 / me=hex / subme=7 / psy=1 / psy_rd=1.00:0.00 / mixed_ref=1 / me_range=16 / chroma_me=1 / trellis=1 / 8x8dct=1 / cqm=0 / deadzone=21,11 / fast_pskip=1 / chroma_qp_offset=-2 / threads=12 / lookahead_threads=2 / sliced_threads=0 / nr=0 / decimate=1 / interlaced=0 / bluray_compat=0 / constrained_intra=0 / bframes=3 / b_pyramid=2 / b_adapt=1 / b_bias=0 / direct=1 / weightb=1 / open_gop=0 / weightp=2 / keyint=240 / keyint_min=24 / scenecut=40 / intra_refresh=0 / rc_lookahead=40 / rc=abr / mbtree=1 / bitrate=10000 / ratetol=1.0 / qcomp=0.60 / qpmin=0 / qpmax=69 / qpstep=4 / vbv_maxrate=62500 / vbv_bufsize=78125 / nal_hrd=none / filler=0 / ip_ratio=1.40 / aq=1:1.00
Default                                  : Yes
Forced                                   : No
Color range                              : Limited
Color primaries                          : BT.709
Transfer characteristics                 : BT.709
Matrix coefficients                      : BT.709

Audio
ID                                       : 2
Format                                   : DTS
Format/Info                              : Digital Theater Systems
Codec ID                                 : A_DTS
Duration                                 : 1 h 20 min
Bit rate mode                            : Constant
Bit rate                                 : 1 509 kb/s
Channel(s)                               : 6 channels
Channel layout                           : C L R Ls Rs LFE
Sampling rate                            : 48.0 kHz
Frame rate                               : 93.750 FPS (512 SPF)
Bit depth                                : 24 bits
Compression mode                         : Lossy
Stream size                              : 863 MiB (13%)
Title                                    : Surround
Language                                 : English
Default                                  : Yes
Forced                                   : No

Menu
00:00:00.000                             : :00:00:00.000
00:02:18.167                             : :00:02:18.042
00:11:00.167                             : :00:11:00.042
00:17:45.708                             : :00:17:45.625
00:29:45.458                             : :00:29:45.375
00:35:07.833                             : :00:35:07.667
00:41:28.083                             : :00:41:28.000
00:59:56.208                             : :00:59:56.125
01:16:58.917                             : :01:16:58.792



上传的附件:
最新回复 (0)
返回
发新帖