壁毯 Tapestry.2019.1080p.AMZN.WEBRip.DDP2.0.x264-4.60GB 2019 欧美 剧情 1080p

wzy311 28天前 177



◎译  名 壁毯
◎片  名 Tapestry
◎年  代 2017
◎产  地 美国
◎类  别 剧情 / 家庭
◎语  言 英语
◎上映日期 2017-04-08(美国)
◎IMDb评分  3.3/10 from 127 users
◎IMDb链接  http://www.imdb.com/title/tt3378384
◎豆瓣评分 0/10 from 0 users
◎豆瓣链接 https://movie.douban.com/subject/30444692/
◎片  长 98分钟
◎导  演 Ken Kushner
◎主  演 史蒂芬·鲍德温 Stephen Baldwin


◎简  介  

  Tapestry is the story of a man (Stephen Baldwin) in the midst of a heavy personal and spiritual crisis. Aided by his Father (Burt Young), and his family, he embarks on a personal journey that will forever change him.

Video
ID                                       : 1
Format                                   : AVC
Format/Info                              : Advanced Video Codec
Format profile                           : High@L4
Format settings                          : CABAC / 4 Ref Frames
Format settings, CABAC                   : Yes
Format settings, Reference frames        : 4 frames
Codec ID                                 : V_MPEG4/ISO/AVC
Duration                                 : 1 h 31 min
Bit rate mode                            : Constant
Bit rate                                 : 6 948 kb/s
Nominal bit rate                         : 10 000 kb/s
Width                                    : 1 920 pixels
Height                                   : 816 pixels
Display aspect ratio                     : 2.35:1
Frame rate mode                          : Constant
Frame rate                               : 23.976 (24000/1001) FPS
Color space                              : YUV
Chroma subsampling                       : 4:2:0
Bit depth                                : 8 bits
Scan type                                : Progressive
Bits/(Pixel*Frame)                       : 0.185
Stream size                              : 4.46 GiB (97%)
Default                                  : Yes
Forced                                   : No
Color range                              : Limited
Color primaries                          : BT.709
Transfer characteristics                 : BT.709
Matrix coefficients                      : BT.709

Audio
ID                                       : 2
Format                                   : E-AC-3
Format/Info                              : Enhanced AC-3
Commercial name                          : Dolby Digital Plus
Codec ID                                 : A_EAC3
Duration                                 : 1 h 31 min
Bit rate mode                            : Constant
Bit rate                                 : 224 kb/s
Channel(s)                               : 2 channels
Channel layout                           : L R
Sampling rate                            : 48.0 kHz
Frame rate                               : 31.250 FPS (1536 SPF)
Compression mode                         : Lossy
Stream size                              : 147 MiB (3%)
Language                                 : English
Service kind                             : Complete Main
Default                                  : Yes
Forced                                   : No

Text
ID                                       : 3
Format                                   : UTF-8
Codec ID                                 : S_TEXT/UTF8
Codec ID/Info                            : UTF-8 Plain Text
Duration                                 : 1 h 31 min
Bit rate                                 : 65 b/s
Count of elements                        : 1647
Stream size                              : 43.9 KiB (0%)
Title                                    : English [CC](SDH)
Language                                 : English
Default                                  : Yes
Forced                                   : No



上传的附件:
最新回复 (0)
返回
发新帖