游龙戏凤.The.Prince.and.the.Showgirl.1957.1080p.AMZN.WEBRip.AAC2.0.x264-SbR 7.57 GB 更早 欧美 喜剧 爱情 1080p

7bt 8天前 159

The.Prince.and.the.Showgirl.1957

导演: 劳伦斯·奥利弗

编剧: 泰伦斯·拉提根

主演: 玛丽莲·梦露 / 劳伦斯·奥利弗 / 西碧尔·索恩迪克

类型: 喜剧 / 爱情

制片国家/地区: 英国 / 美国

语言: 法语 / 德语 / 英语

上映日期: 1957-06-13

片长: 115 分钟

又名: 王子和歌女 / 王子和舞女

IMDb链接: tt0050861


游龙戏凤的剧情简介 · · · · · ·

  一位个性拘谨且有教养的王子,邂逅一位性感且浑身散发魅力的歌舞女郎,她的一举手一投足,都充满著致命的吸引力,礼教的束缚让这位木讷的王子极力抵抗她的诱惑,最后却还是拜倒在她的石榴裙下……






Video
ID : 1
Format : AVC
Format/Info : Advanced Video Codec
Format profile : High@L4
Format settings : CABAC / 4 Ref Frames
Format settings, CABAC : Yes
Format settings, Reference frames : 4 frames
Codec ID : V_MPEG4/ISO/AVC
Duration : 1 h 56 min
Bit rate mode : Variable
Bit rate : 9 134 kb/s
Maximum bit rate : 15.0 Mb/s
Width : 1 920 pixels
Height : 1 080 pixels
Display aspect ratio : 16:9
Frame rate mode : Constant
Frame rate : 23.976 (24000/1001) FPS
Color space : YUV
Chroma subsampling : 4:2:0
Bit depth : 8 bits
Scan type : Progressive
Bits/(Pixel*Frame) : 0.184
Stream size : 7.46 GiB (99%)
Writing library : x264 core 148 r2623 d5b2374
Encoding settings : cabac=1 / ref=4 / deblock=1:-1:-1 / analyse=0x3:0x133 / me=umh / subme=9 / psy=1 / psy_rd=1.00:0.15 / mixed_ref=1 / me_range=24 / chroma_me=1 / trellis=2 / 8x8dct=1 / cqm=0 / deadzone=21,11 / fast_pskip=1 / chroma_qp_offset=-3 / threads=34 / lookahead_threads=5 / sliced_threads=0 / nr=150 / decimate=1 / interlaced=0 / bluray_compat=0 / constrained_intra=0 / bframes=8 / b_pyramid=2 / b_adapt=2 / b_bias=0 / direct=3 / weightb=1 / open_gop=0 / weightp=2 / keyint=120 / keyint_min=61 / scenecut=0 / intra_refresh=0 / rc_lookahead=120 / rc=crf / mbtree=1 / crf=18.0 / qcomp=0.60 / qpmin=0 / qpmax=69 / qpstep=4 / vbv_maxrate=15000 / vbv_bufsize=31250 / crf_max=0.0 / nal_hrd=vbr / filler=0 / ip_ratio=1.40 / aq=3:1.00
Language : English
Default : Yes
Forced : No
Color range : Limited
Color primaries : BT.709
Transfer characteristics : BT.709
Matrix coefficients : BT.709

Audio
ID : 2
Format : AAC LC
Format/Info : Advanced Audio Codec Low Complexity
Codec ID : A_AAC-2
Duration : 1 h 56 min
Bit rate : 125 kb/s
Channel(s) : 2 channels
Channel layout : L R
Sampling rate : 48.0 kHz
Frame rate : 46.875 FPS (1024 SPF)
Compression mode : Lossy
Stream size : 105 MiB (1%)
Language : English
Default : Yes
Forced : No

Text #1
ID : 3
Format : UTF-8
Codec ID : S_TEXT/UTF8
Codec ID/Info : UTF-8 Plain Text
Duration : 1 h 52 min
Bit rate : 82 b/s
Count of elements : 2141
Stream size : 68.4 KiB (0%)
Language : English
Default : No
Forced : No

Text #2
ID : 4
Format : UTF-8
Codec ID : S_TEXT/UTF8
Codec ID/Info : UTF-8 Plain Text
Duration : 1 h 54 min
Bit rate : 83 b/s
Count of elements : 2216
Stream size : 69.8 KiB (0%)
Title : SDH
Language : English
Default : No
Forced : No


磁链:

magnet:?xt=urn:btih:8524f0277fb101952ffc32746748df102d485ad9&dn=The.Prince.and.the.Showgirl.1957.1080p.AMZN.WEBRip.AAC2.0.x264-SbR&tr=http%3A%2F%2Ftracker.trackerfix.com%3A80%2Fannounce&tr=udp%3A%2F%2F9.rarbg.me%3A2760&tr=udp%3A%2F%2F9.rarbg.to%3A2780

上传的附件:
最新回复 (0)
返回
发新帖