绝地隧战.Take.Point.2018.KOREAN.1080p.BluRay.REMUX.AVC.DTS-HD.MA.5.1-FGT 28.89 GB 2018 韩国 动作 REMUX

7bt 8天前 104


Take.Point.2018

◎译  名 绝地隧战 / 90分钟末日倒数(台) / PMC:碉堡 / Take Point / 轰天暴队(港) / 隧战

◎片  名 PMC: 더벙커

◎年  代 2018

◎产  地 韩国

◎类  别 动作

◎语  言 韩语 / 英语

◎上映日期 2018-12-26(韩国)

◎IMDb评分 6.6/10 from 137 users

◎豆瓣评分 6.6/10 from 166 users

◎豆瓣链接 https://movie.douban.com/subject/27087787/

◎片  长 124分钟

◎导  演 金秉祐 Byeong-woo Kim

◎编  剧 金秉祐 Byeong-woo Kim

◎主  演 河正宇 Jung-woo Ha

      李善均 Seon-gyun Lee

      詹妮弗·艾莉 Jennifer Ehle

      凯文·杜兰 Kevin Durand

      马利克·约巴 Malik Yoba

      斯宾塞·丹尼尔斯 Spencer Daniels

      罗伯特·柯蒂斯·布朗 Robert Curtis Brown

      迪恩·唐森 Dean Dawson

      Jeff Bosley

      安德烈亚斯·弗龙克 Andreas Fronk

      伊内丝·赖敏斯 Ines Laimins

      Markina Brown


绝地隧战剧情简介

在2024年的美国总统大选当天,Ahab(河正宇 饰)所带领的佣兵部队承接CIA秘密任务,绑架北韩政要,然而在任务行经南北韩非军事区之地下堡垒时,突如其来的埋伏衝突,却让原本单纯的任务,可能成为引爆第三次世界大战的导火线 …

亚哈发觉美国、中国与南北韩陷入这场政治阴谋,而北韩政要反成为了掌握全球与论的关键。为了不被CIA利用后灭口,亚哈与他的佣兵部队必须要让北韩政要活命,在腹背受敌的危机下换取他们自己的生存机会 …

★ 全韩 2018 年底最受瞩目大作,韩国影业龙头 CJ 娱乐耗费钜资,邀请跨国班底合作,打造亚洲影坛少见动作科幻大片 ★ 《与神同行》票房影帝 河正宇 v.s.《非常警探》人气巨星 李善均,两大男神大银幕首度携手竞飙演技 ★ 绝无冷场!亚洲影坛首部”真实时间”动作大片,分秒必争的紧张感与临场感,令人屏习以待 ★ 以《恐怖攻击直播》拿下韩国暑期三週票房冠军&韩国奥斯卡多项提名的大导演 金秉洙,再献创意爆表烧脑神作!



Video
ID : 1
Format : AVC
Format/Info : Advanced Video Codec
Format profile : High@L4.1
Format settings : CABAC / 4 Ref Frames
Format settings, CABAC : Yes
Format settings, Reference frames : 4 frames
Format settings, GOP : M=3, N=24
Codec ID : V_MPEG4/ISO/AVC
Duration : 2 h 5 min
Bit rate mode : Variable
Bit rate : 29.9 Mb/s
Maximum bit rate : 37.0 Mb/s
Width : 1 920 pixels
Height : 1 080 pixels
Display aspect ratio : 16:9
Frame rate mode : Constant
Frame rate : 23.976 (24000/1001) FPS
Standard : NTSC
Color space : YUV
Chroma subsampling : 4:2:0
Bit depth : 8 bits
Scan type : Progressive
Bits/(Pixel*Frame) : 0.602
Stream size : 26.1 GiB (91%)
Title : Take.Point.2018.KOREAN.1080p.BluRay.REMUX.AVC.DTS-HD.MA.5.1-FGT
Language : English
Default : No
Forced : No
Color range : Limited
Color primaries : BT.709
Transfer characteristics : BT.709
Matrix coefficients : BT.709

Audio #1
ID : 2
Format : DTS XLL
Format/Info : Digital Theater Systems
Commercial name : DTS-HD Master Audio
Codec ID : A_DTS
Duration : 2 h 5 min
Bit rate mode : Variable
Bit rate : 2 337 kb/s
Channel(s) : 6 channels
Channel layout : C L R Ls Rs LFE
Sampling rate : 48.0 kHz
Frame rate : 93.750 FPS (512 SPF)
Bit depth : 24 bits
Compression mode : Lossless
Stream size : 2.04 GiB (7%)
Title : Take.Point.2018.KOREAN.1080p.BluRay.REMUX.AVC.DTS-HD.MA.5.1-FGT
Language : Korean
Default : Yes
Forced : No

Audio #2
ID : 3
Format : AC-3
Format/Info : Audio Coding 3
Commercial name : Dolby Digital
Codec ID : A_AC3
Duration : 2 h 5 min
Bit rate mode : Constant
Bit rate : 384 kb/s
Channel(s) : 2 channels
Channel layout : L R
Sampling rate : 48.0 kHz
Frame rate : 31.250 FPS (1536 SPF)
Bit depth : 16 bits
Compression mode : Lossy
Stream size : 343 MiB (1%)
Title : Take.Point.2018.KOREAN.1080p.BluRay.REMUX.AVC.DTS-HD.MA.5.1-FGT
Language : Korean
Service kind : Complete Main
Default : No
Forced : No

Audio #3
ID : 4
Format : AC-3
Format/Info : Audio Coding 3
Commercial name : Dolby Digital
Codec ID : A_AC3
Duration : 2 h 5 min
Bit rate mode : Constant
Bit rate : 384 kb/s
Channel(s) : 2 channels
Channel layout : L R
Sampling rate : 48.0 kHz
Frame rate : 31.250 FPS (1536 SPF)
Bit depth : 16 bits
Compression mode : Lossy
Stream size : 343 MiB (1%)
Title : Take.Point.2018.KOREAN.1080p.BluRay.REMUX.AVC.DTS-HD.MA.5.1-FGT
Language : Korean
Service kind : Complete Main
Default : No
Forced : No

Text #1
ID : 5
Format : UTF-8
Codec ID : S_TEXT/UTF8
Codec ID/Info : UTF-8 Plain Text
Duration : 1 h 59 min
Bit rate : 52 b/s
Count of elements : 1444
Stream size : 45.6 KiB (0%)
Title : English-SRT
Language : English
Default : Yes
Forced : No

Text #2
ID : 6
Format : PGS
Muxing mode : zlib
Codec ID : S_HDMV/PGS
Codec ID/Info : Picture based subtitle format used on BDs/HD-DVDs
Duration : 1 h 58 min
Bit rate : 23.2 kb/s
Count of elements : 2494
Stream size : 19.6 MiB (0%)
Title : Korean-PGS
Language : Korean
Default : No
Forced : No

Text #3
ID : 7
Format : PGS
Muxing mode : zlib
Codec ID : S_HDMV/PGS
Codec ID/Info : Picture based subtitle format used on BDs/HD-DVDs
Duration : 1 h 59 min
Bit rate : 31.7 kb/s
Count of elements : 2528
Stream size : 27.1 MiB (0%)
Title : English-PGS
Language : English
Default : No
Forced : No

Text #4
ID : 8
Format : PGS
Muxing mode : zlib
Codec ID : S_HDMV/PGS
Codec ID/Info : Picture based subtitle format used on BDs/HD-DVDs
Duration : 1 h 52 min
Bit rate : 18.4 kb/s
Count of elements : 1891
Stream size : 14.9 MiB (0%)
Title : Korean-PGS
Language : Korean
Default : No
Forced : No

Menu
00:00:00.000 : en:Chapter 01
00:03:49.312 : en:Chapter 02
00:15:39.730 : en:Chapter 03
00:26:38.597 : en:Chapter 04
00:36:49.540 : en:Chapter 05
00:45:37.818 : en:Chapter 06
01:00:20.950 : en:Chapter 07
01:09:04.890 : en:Chapter 08
01:19:57.876 : en:Chapter 09
01:31:05.209 : en:Chapter 10
01:38:51.926 : en:Chapter 11
01:48:52.526 : en:Chapter 12
01:59:47.972 : en:Chapter 13


磁链:

magnet:?xt=urn:btih:43c1bb67d840d15f1893516b4be75b91920ce0c7&dn=Take.Point.2018.KOREAN.1080p.BluRay.REMUX.AVC.DTS-HD.MA.5.1-FGT&tr=http%3A%2F%2Ftracker.trackerfix.com%3A80%2Fannounce&tr=udp%3A%2F%2F9.rarbg.me%3A2770&tr=udp%3A%2F%2F9.rarbg.to%3A2710


上传的附件:
最新回复 (0)
返回
发新帖