夏福特.Shaft.2019.1080p.BluRay.x264.TrueHD.7.1.Atmos-FGT 10.53 GB 2019 欧美 动作 喜剧 犯罪 1080p

7bt 25天前 314

Shaft.2019

导演: 蒂姆·斯托瑞

编剧: 肯尼亚·巴里斯 / 亚历克斯·巴诺 / 欧内斯特·泰迪曼

主演: 塞缪尔·杰克逊 / 杰西·厄舍 / 理查德·朗德特里 / 雷吉娜·赫尔 / 亚历山德拉·希普

类型: 喜剧 / 动作 / 犯罪

制片国家/地区: 美国

语言: 英语

上映日期: 2019-06-14(美国)

片长: 111分钟

又名: 辣手刑警 2:勉强父子档(港) / 新杀戮战警(台) / 杀戮战警2 / 铁杆神探2 / 夏福特之子 / Shaft 2 / Son of Shaft

IMDb链接: tt4463894


夏福特的剧情简介 · · · · · ·

  杰西·厄舍加盟[杀戮战警]续作[夏福特之子](Son of Shaft,暂译),塞缪尔·杰克逊同时回归。本片由蒂姆·斯托瑞([佐州自救兄弟])执导,肯尼亚·巴里斯编剧。厄舍扮演杰克逊的儿子,他同时也是一名联邦调查局工作人员,更是网络专家。



Video
ID : 1
Format : AVC
Format/Info : Advanced Video Codec
Format profile : High@L4.1
Format settings : CABAC / 5 Ref Frames
Format settings, CABAC : Yes
Format settings, Reference frames : 5 frames
Codec ID : V_MPEG4/ISO/AVC
Duration : 1 h 51 min
Bit rate : 9 182 kb/s
Width : 1 920 pixels
Height : 808 pixels
Display aspect ratio : 2.40:1
Frame rate mode : Constant
Frame rate : 23.976 (24000/1001) FPS
Color space : YUV
Chroma subsampling : 4:2:0
Bit depth : 8 bits
Scan type : Progressive
Bits/(Pixel*Frame) : 0.247
Stream size : 7.15 GiB (68%)
Title : Shaft.2019.1080p.BluRay.x264.TrueHD.7.1.Atmos-FGT
Writing library : x264 core 158 r2984 3759fcb
Encoding settings : cabac=1 / ref=5 / deblock=1:-3:-3 / analyse=0x3:0x133 / me=umh / subme=8 / psy=1 / psy_rd=1.00:0.00 / mixed_ref=1 / me_range=16 / chroma_me=1 / trellis=1 / 8x8dct=1 / cqm=0 / deadzone=21,11 / fast_pskip=0 / chroma_qp_offset=-2 / threads=25 / lookahead_threads=4 / sliced_threads=0 / nr=0 / decimate=1 / interlaced=0 / bluray_compat=0 / constrained_intra=0 / bframes=3 / b_pyramid=2 / b_adapt=1 / b_bias=0 / direct=3 / weightb=1 / open_gop=0 / weightp=2 / keyint=250 / keyint_min=23 / scenecut=40 / intra_refresh=0 / rc_lookahead=50 / rc=2pass / mbtree=1 / bitrate=9182 / ratetol=1.0 / qcomp=0.60 / qpmin=0 / qpmax=69 / qpstep=4 / cplxblur=20.0 / qblur=0.5 / vbv_maxrate=62500 / vbv_bufsize=78125 / nal_hrd=none / filler=0 / ip_ratio=1.40 / aq=1:1.00
Default : Yes
Forced : No

Audio #1
ID : 2
Format : MLP FBA 16-ch
Format/Info : Meridian Lossless Packing FBA with 16-channel presentation
Commercial name : Dolby TrueHD with Dolby Atmos
Codec ID : A_TRUEHD
Duration : 1 h 51 min
Bit rate mode : Variable
Bit rate : 3 622 kb/s
Maximum bit rate : 6 336 kb/s
Channel(s) : 8 channels
Channel layout : L R C LFE Ls Rs Lb Rb
Sampling rate : 48.0 kHz
Frame rate : 1 200.000 FPS (40 SPF)
Compression mode : Lossless
Stream size : 2.82 GiB (27%)
Title : Shaft.2019.1080p.BluRay.x264.TrueHD.7.1.Atmos-FGT
Language : English
Default : Yes
Forced : No
Number of dynamic objects : 15
Bed channel count : 1 channel
Bed channel configuration : LFE

Audio #2
ID : 3
Format : AC-3
Format/Info : Audio Coding 3
Commercial name : Dolby Digital
Codec ID : A_AC3
Duration : 1 h 51 min
Bit rate mode : Constant
Bit rate : 640 kb/s
Channel(s) : 6 channels
Channel layout : L R C LFE Ls Rs
Sampling rate : 48.0 kHz
Frame rate : 31.250 FPS (1536 SPF)
Bit depth : 16 bits
Compression mode : Lossy
Stream size : 511 MiB (5%)
Title : Shaft.2019.1080p.BluRay.x264.TrueHD.7.1.Atmos-FGT
Language : English
Service kind : Complete Main
Default : No
Forced : No

Text #1
ID : 4
Format : UTF-8
Codec ID : S_TEXT/UTF8
Codec ID/Info : UTF-8 Plain Text
Duration : 1 h 45 min
Bit rate : 79 b/s
Count of elements : 2020
Stream size : 61.5 KiB (0%)
Title : English-SRT
Language : English
Default : Yes
Forced : No

Text #2
ID : 5
Format : PGS
Muxing mode : zlib
Codec ID : S_HDMV/PGS
Codec ID/Info : Picture based subtitle format used on BDs/HD-DVDs
Duration : 1 h 46 min
Bit rate : 52.1 kb/s
Count of elements : 4358
Stream size : 39.8 MiB (0%)
Title : English-PGS
Language : English
Default : No
Forced : No

Menu
00:00:00.000 : en:00:00:00.000
00:08:02.774 : en:00:08:02.774
00:17:38.557 : en:00:17:38.557
00:27:55.924 : en:00:27:55.924
00:35:34.466 : en:00:35:34.466
00:41:22.438 : en:00:41:22.438
00:49:58.996 : en:00:49:58.996
00:59:05.208 : en:00:59:05.208
01:08:15.883 : en:01:08:15.883
01:17:30.563 : en:01:17:30.563
01:23:12.196 : en:01:23:12.196
01:33:29.270 : en:01:33:29.270
01:43:14.021 : en:01:43:14.021
01:46:54.742 : en:01:46:54.742


磁链:

magnet:?xt=urn:btih:b34130d102d6d2e412c86644209bf6dfb2c97dfe&dn=Shaft.2019.1080p.BluRay.x264.TrueHD.7.1.Atmos-FGT&tr=http%3A%2F%2Ftracker.trackerfix.com%3A80%2Fannounce&tr=udp%3A%2F%2F9.rarbg.me%3A2760&tr=udp%3A%2F%2F9.rarbg.to%3A2770

上传的附件:
最新回复 (0)
返回
发新帖