逍遥骑士.Easy.Rider.1969.2160p.BluRay.REMUX.HEVC.DTS-HD.MA.5.1-FGT 48.73 GB 英语简繁中字 更早 欧美 剧情 REMUX

7bt 12天前 138


逍遥骑士.Easy.Rider.1969

导演: 丹尼斯·霍珀

编剧: 彼得·方达 / 丹尼斯·霍珀 / 特里·索泽恩

主演: 彼得·方达 / 丹尼斯·霍珀 / 杰克·尼科尔森

类型: 剧情

制片国家/地区: 美国

语言: 英语 / 西班牙语

上映日期: 1969-05-08

片长: 95 分钟

IMDb链接: tt0064276


逍遥骑士的剧情简介 · · · · · ·

  比利(丹尼斯·霍珀 Dennis Hopper 饰)和怀特(彼得·方达 Peter Fonda 饰)用一次毒品交易的钱骑着他们的机车上路了,他们的目的地,是新奥尔良的狂欢节。在路上,他们经过了离群索居的波西米亚人群落,短暂逗留的数天里目睹了他们自由放浪但也贫穷困苦的生活。在德克萨斯州,他们仅因为行为举止诡异就被警察关进了监狱,在那里,他们遇见了律师汉森(杰克·尼科尔森 Jack Nicholson 饰),汉森帮助他们逃离了牢狱之灾,他们怂恿汉森同他们一起上路。抵挡不住内心的骚动,汉森同意了。三人来到一个保守的小镇,在那里受尽了居民的白眼。不受欢迎的三人只得露宿荒野,夜里,当地的居民乔装袭击了他们,汉森被打死。比利和怀特虽然震惊,但这一切都没能阻止他们前进的脚步。到达目的地的两人并没有感到喜悦,有的只是无尽的空虚,沮丧的两人打道回府,但令人意外的是,一个卡车司机和他的双杆猎枪使得他们的行程截然而止。

  这是影史上最伟大的公路电影,也是为数众多的公路电影的鼻祖。


逍遥骑士 Easy Rider 获奖情况

第42届奥斯卡金像奖  (1970)

最佳男配角(提名) 杰克·尼科尔森

最佳原创剧本(提名) 丹尼斯·霍珀 / 特里·索泽恩 / 彼得·方达

第22届戛纳电影节  (1969)

主竞赛单元 金棕榈奖(提名) 丹尼斯·霍珀

最佳首作 丹尼斯·霍珀



Video
ID : 1
Format : HEVC
Format/Info : High Efficiency Video Coding
Format profile : Main 10@L5.1@High
HDR format : SMPTE ST 2086, HDR10 compatible
Codec ID : V_MPEGH/ISO/HEVC
Duration : 1 h 35 min
Bit rate : 53.5 Mb/s
Width : 3 840 pixels
Height : 2 160 pixels
Display aspect ratio : 16:9
Frame rate mode : Constant
Frame rate : 23.976 (24000/1001) FPS
Color space : YUV
Chroma subsampling : 4:2:0 (Type 2)
Bit depth : 10 bits
Bits/(Pixel*Frame) : 0.269
Stream size : 35.7 GiB (73%)
Title : Easy.Rider.1969.2160p.BluRay.REMUX.HEVC.DTS-HD.MA.5.1-FGT
Language : English
Default : No
Forced : No
Color range : Limited
Color primaries : BT.2020
Transfer characteristics : PQ
Matrix coefficients : BT.2020 non-constant
Mastering display color primaries : Display P3
Mastering display luminance : min: 0.0050 cd/m2, max: 4000 cd/m2
Maximum Content Light Level : 3991 cd/m2
Maximum Frame-Average Light Level : 396 cd/m2

Audio #1
ID : 2
Format : DTS XLL
Format/Info : Digital Theater Systems
Commercial name : DTS-HD Master Audio
Codec ID : A_DTS
Duration : 1 h 35 min
Bit rate mode : Variable
Bit rate : 1 884 kb/s
Channel(s) : 6 channels
Channel layout : C L R Ls Rs LFE
Sampling rate : 48.0 kHz
Frame rate : 93.750 FPS (512 SPF)
Bit depth : 16 bits
Compression mode : Lossless
Stream size : 1.26 GiB (3%)
Title : Easy.Rider.1969.2160p.BluRay.REMUX.HEVC.DTS-HD.MA.5.1-FGT
Language : English
Default : Yes
Forced : No

Audio #2
ID : 3
Format : DTS XLL
Format/Info : Digital Theater Systems
Commercial name : DTS-HD Master Audio
Codec ID : A_DTS
Duration : 1 h 35 min
Bit rate mode : Variable
Bit rate : 1 563 kb/s
Channel(s) : 2 channels
Channel layout : L R
Sampling rate : 48.0 kHz
Frame rate : 93.750 FPS (512 SPF)
Bit depth : 16 bits
Compression mode : Lossless
Stream size : 1.04 GiB (2%)
Title : Easy.Rider.1969.2160p.BluRay.REMUX.HEVC.DTS-HD.MA.5.1-FGT
Language : English
Default : No
Forced : No


Text #7
ID : 21
Format : PGS
Muxing mode : zlib
Codec ID : S_HDMV/PGS
Codec ID/Info : Picture based subtitle format used on BDs/HD-DVDs
Duration : 1 h 32 min
Bit rate : 13.5 kb/s
Count of elements : 910
Stream size : 8.93 MiB (0%)
Title : Chinese-PGS
Language : Chinese
Default : No
Forced : No

Text #8
ID : 22
Format : PGS
Muxing mode : zlib
Codec ID : S_HDMV/PGS
Codec ID/Info : Picture based subtitle format used on BDs/HD-DVDs
Duration : 1 h 32 min
Bit rate : 15.3 kb/s
Count of elements : 1410
Stream size : 10.1 MiB (0%)
Title : Chinese-PGS
Language : Chinese
Default : No
Forced : No


Menu
00:00:00.000 : en:Chapter 01
00:10:11.402 : en:Chapter 02
00:16:05.589 : en:Chapter 03
00:19:42.848 : en:Chapter 04
00:26:48.898 : en:Chapter 05
00:31:40.565 : en:Chapter 06
00:35:52.650 : en:Chapter 07
00:43:05.040 : en:Chapter 08
00:50:08.672 : en:Chapter 09
00:54:22.217 : en:Chapter 10
01:01:59.674 : en:Chapter 11
01:09:34.545 : en:Chapter 12
01:14:23.459 : en:Chapter 13
01:20:17.604 : en:Chapter 14
01:28:41.816 : en:Chapter 15
01:32:03.351 : en:Chapter 16


磁链:

magnet:?xt=urn:btih:2cc9f0daef94bd3428b93c68200ecc5cde5cd3ef&dn=Easy.Rider.1969.2160p.BluRay.REMUX.HEVC.DTS-HD.MA.5.1-FGT&tr=http%3A%2F%2Ftracker.trackerfix.com%3A80%2Fannounce&tr=udp%3A%2F%2F9.rarbg.me%3A2760&tr=udp%3A%2F%2F9.rarbg.to%3A2720

上传的附件:
最新回复 (0)
返回
发新帖