星月童话.Moonlight.Express.1999.JAPANESE.1080p.BluRay.x264.DTS-FGT 9.60 GB 90年代 华语 爱情 惊悚 BluRay

BT种子 1月前 275

导演: 李仁港

编剧: 罗志良 / 青柳佑美子 / 陈淑贤 / 杨倩玲

主演: 张国荣 / 常盘贵子 / 星野有香 / 杨紫琼 / 高捷 / 惠天赐 / 廖启智 / 黄家诺 / 李香琴

类型: 剧情 / 爱情 / 惊悚

制片国家/地区: 中国香港

语言: 粤语 / 日语 / 普通话

上映日期: 1999-04-01(中国香港)

片长: 106 分钟

又名: Moonlight Express

IMDb链接: tt0202478


星月童话的剧情简介 · · · · · ·

  未婚夫达也(张国荣)在香港死于一场交通意外后,瞳(常盘贵子)以为自此失去幸福,生活质量开始大幅滑坡。为了兑现曾与达也在香港许下的承诺,她勉强收拾心情只身来到伤心城。同瞳一样,香港警察家宝(张国荣)也有一段伤心往事,他曾因工作狂热导致女友无法忍受冷落自杀身亡。女友死后,家宝选择做了卧底,想以更加狂热刺激的工作来麻醉和折磨自己。

  瞳遇到家宝后,因为家宝与达也长得一模一样,疑惑达也还在,内心又起美丽的憧憬,两个因爱受伤的人擦出烂漫火花。


星月童话电影截图:


Video
ID : 1
Format : AVC
Format/Info : Advanced Video Codec
Format profile : High@L4.1
Format settings : CABAC / 4 Ref Frames
Format settings, CABAC : Yes
Format settings, Reference frames : 4 frames
Codec ID : V_MPEG4/ISO/AVC
Duration : 1 h 45 min
Bit rate : 11.5 Mb/s
Width : 1 920 pixels
Height : 1 080 pixels
Display aspect ratio : 16:9
Frame rate mode : Constant
Frame rate : 24.000 FPS
Color space : YUV
Chroma subsampling : 4:2:0
Bit depth : 8 bits
Scan type : Progressive
Bits/(Pixel*Frame) : 0.231
Stream size : 8.48 GiB (88%)
Title : Moonlight.Express.1999.JAPANESE.1080p.BluRay.x264.DTS-FGT
Writing library : x264 core 148 r2748 97eaef2
Encoding settings : cabac=1 / ref=4 / deblock=1:-2:-2 / analyse=0x3:0x113 / me=umh / subme=9 / psy=1 / psy_rd=1.00:0.15 / mixed_ref=1 / me_range=16 / chroma_me=1 / trellis=2 / 8x8dct=1 / cqm=0 / deadzone=21,11 / fast_pskip=1 / chroma_qp_offset=-3 / threads=24 / lookahead_threads=3 / sliced_threads=0 / nr=0 / decimate=1 / interlaced=0 / bluray_compat=0 / constrained_intra=0 / bframes=3 / b_pyramid=2 / b_adapt=1 / b_bias=0 / direct=3 / weightb=1 / open_gop=0 / weightp=2 / keyint=250 / keyint_min=25 / scenecut=40 / intra_refresh=0 / rc_lookahead=50 / rc=2pass / mbtree=1 / bitrate=11500 / ratetol=1.0 / qcomp=0.60 / qpmin=0 / qpmax=69 / qpstep=4 / cplxblur=20.0 / qblur=0.5 / vbv_maxrate=31250 / vbv_bufsize=31250 / nal_hrd=none / filler=0 / ip_ratio=1.40 / aq=1:1.00
Language : Japanese
Default : Yes
Forced : No

Audio
ID : 2
Format : DTS
Format/Info : Digital Theater Systems
Codec ID : A_DTS
Duration : 1 h 45 min
Bit rate mode : Constant
Bit rate : 1 509 kb/s
Channel(s) : 6 channels
Channel layout : C L R Ls Rs LFE
Sampling rate : 48.0 kHz
Frame rate : 93.750 FPS (512 SPF)
Bit depth : 16 bits
Compression mode : Lossy
Stream size : 1.11 GiB (12%)
Title : Moonlight.Express.1999.JAPANESE.1080p.BluRay.x264.DTS-FGT
Language : Japanese
Default : Yes
Forced : No

Text
ID : 3
Format : UTF-8
Codec ID : S_TEXT/UTF8
Codec ID/Info : UTF-8 Plain Text
Duration : 1 h 41 min
Bit rate : 26 b/s
Count of elements : 877
Stream size : 19.6 KiB (0%)
Language : English
Default : Yes
Forced : No

Menu
00:00:00.000 : en:Chapter 01
00:07:51.583 : en:Chapter 02
00:20:09.791 : en:Chapter 03
00:26:48.166 : en:Chapter 04
00:33:33.791 : en:Chapter 05
00:41:06.208 : en:Chapter 06
00:49:10.791 : en:Chapter 07
00:56:02.833 : en:Chapter 08
01:07:10.500 : en:Chapter 09
01:18:06.083 : en:Chapter 10
01:34:18.541 : en:Chapter 11
01:39:57.458 : en:Chapter 12


磁力链接:

magnet:?xt=urn:btih:d36288c07177ff2b61621df8bb9f04be7943d463&dn=Moonlight.Express.1999.JAPANESE.1080p.BluRay.x264.DTS-FGT&tr=http%3A%2F%2Ftracker.trackerfix.com%3A80%2Fannounce&tr=udp%3A%2F%2F9.rarbg.me%3A2840&tr=udp%3A%2F%2F9.rarbg.to%3A2990

上传的附件:

BT种子 - BT电影下载- 版权声明 1、本主题所有言论和图片纯属会员个人意见,与BT种子立场无关。
2、BT种子管理员和版主有权不事先通知发贴者而删除本文。
3、如本帖侵犯到任何版权问题,请立即告知本站,本站将及时予以删除BT种子和磁力链接并致以最深的歉意。

最新回复 (0)
返回
发新帖